eztv.re | Tuesday 20th of November 2018 06:20 PM ET
Search: or 
 

Mayans M C S01E04 WEBRip x264-eSc cblangola.com

Episode Breakdown
Mayans M.C.
Mayans M.C. TV Show S01E04

Season: 1
Episode: 4
Air Date: 25 September, 2018
Download Links
     Torrent Download     Magnet Download
Added 1 month ago by eztv (verified).
Tracker Statistics
Seeds: 140
Peers: 11
Stats generated @ 18:20 on 20th Nov 2018
Torrent Info
Torrent File: Mayans.M.C.S01E04.WEBRip.x264-eSc[eztv].mkv
Torrent Hash: C1F3A7D404B0F4546EC0138C8E3890CAE51D2BC2
Filesize: 489.73 MB
Released: 25th Sep 2018

File Format: MKV (Matroska)
Resolution: 720x404 px
Aspect Ratio: 16:9
Alternate Releases S L
Mayans M C S01E04 720p WEBRip x264-eSc 46 13

Mayans M.C. S01E04 - MurciƩlago/Zotz

Summary:

A new threat in Santo Padre presents the Mayans new obstacles and opportunities.



Mayans M C S01E04 WEBRip x264-eSc cblangola.com
Mayans M.C. S1E4 Screenshot
[header]



Mayans M.C. is the next chapter in Kurt Sutter's award-winning Sons of Anarchy saga.
Set in a post-Jax Teller world, Ezekiel "EZ" Reyes is fresh out of prison and a prospect in the Mayans M.C. charter on the Cali/Mexi border. Now, EZ must carve out his new identity in a town where he was once the golden boy with the American Dream in his grasp.

http://www.tvmaze.com/shows/17118/mayans-mc

Cast

Antonio Jaramillo ... Michael "Riz" Ariza
Edward James Olmos ... Felipe Reyes
J.D. Pardo ... Ezekiel "EZ" Reyes
Richard Cabral ... Johnny "El Coco" Cruz









Infomation


General
Format                                   : Matroska
Format version                           : Version 4 / Version 2
File size                                : 490 MiB
Duration                                 : 1 h 0 min
Overall bit rate                         : 1 137 kb/s
Encoded date                             : UTC 2018-09-25 16:44:41
Writing application                      : mkvmerge v22.0.0 ('At The End Of The World') 64-bit
Writing library                          : libebml v1.3.5 + libmatroska v1.4.8

Video
ID                                       : 1
Format                                   : AVC
Format/Info                              : Advanced Video Codec
Format profile                           : [email protected]
Format settings                          : CABAC / 4 Ref Frames
Format settings, CABAC                   : Yes
Format settings, RefFrames               : 4 frames
Codec ID                                 : V_MPEG4/ISO/AVC
Duration                                 : 1 h 0 min
Bit rate                                 : 1 008 kb/s
Width                                    : 720 pixels
Height                                   : 404 pixels
Display aspect ratio                     : 16:9
Original display aspect ratio            : 16:9
Frame rate mode                          : Constant
Frame rate                               : 30.117 FPS
Color space                              : YUV
Chroma subsampling                       : 4:2:0
Bit depth                                : 8 bits
Scan type                                : Progressive
Bits/(Pixel*Frame)                       : 0.115
Stream size                              : 434 MiB (89%)
Writing library                          : x264 core 142 r2479 dd79a61
Encoding settings                        : cabac=1 / ref=3 / deblock=1:0:0 / analyse=0x3:0x113 / me=hex / subme=7 / psy=1 / psy_rd=1.00:0.00 / mixed_ref=1 / me_range=16 / chroma_me=1 / trellis=1 / 8x8dct=1 / cqm=0 / deadzone=21,11 / fast_pskip=1 / chroma_qp_offset=-2 / threads=12 / lookahead_threads=2 / sliced_threads=0 / nr=0 / decimate=1 / interlaced=0 / bluray_compat=0 / constrained_intra=0 / bframes=3 / b_pyramid=2 / b_adapt=1 / b_bias=0 / direct=1 / weightb=1 / open_gop=0 / weightp=2 / keyint=300 / keyint_min=30 / scenecut=40 / intra_refresh=0 / rc_lookahead=40 / rc=crf / mbtree=1 / crf=18.0 / qcomp=0.60 / qpmin=0 / qpmax=69 / qpstep=4 / vbv_maxrate=17500 / vbv_bufsize=17500 / crf_max=0.0 / nal_hrd=none / filler=0 / ip_ratio=1.40 / aq=1:1.00
Default                                  : Yes
Forced                                   : No
Color range                              : Limited
Color primaries                          : BT.709
Transfer characteristics                 : BT.709
Matrix coefficients                      : BT.709

Audio
ID                                       : 2
Format                                   : AAC
Format/Info                              : Advanced Audio Codec
Format profile                           : HE-AAC / LC
Format settings                          : Implicit
Codec ID                                 : A_AAC-2
Duration                                 : 1 h 0 min
Bit rate                                 : 127 kb/s
Channel(s)                               : 2 channels
Channel positions                        : Front: L R
Sampling rate                            : 48.0 kHz / 24.0 kHz
Frame rate                               : 23.438 FPS (1024 SPF)
Compression mode                         : Lossy
Stream size                              : 54.6 MiB (11%)
Title                                    : Stereo
Default                                  : Yes
Forced                                   : No



[footer]
ssl  cblangola.com RSS cblangola.com Status | cblangola.com API | DMCA: [email protected]